1

Bien bien bien, le site de l'auteur étant en anglais il reste incmpréhensible pour moi, hors j'ai un petit soucis avec cet émulateur :

1) J'ai testé en mettant un jeu iso dans le dossier Isos, le jeu se lance, mais j'ai aucune musique.... Comment faire exactement ?

2

y a poas de support des musique pour les isos il me semble ou sinon il faut passer par uhn fichier toc ou on explique les different fichiers audio encodé en mp3

3

moi aussi j'ai le meme probleme que Griffon
je voulais jouer a DraculaX mais ya pas de musique
alors tu as parler d'un fichier TOC Yod4z
donc si j'ai bien compris sa doit donner sa pour DraculaX

FILE TRACK1.WAV WAVE

TRACK 01 AUDIO

INDEX 01 00:00:00



FILE DRACX_02.ISO BINARY

TRACK 02 MODE1/2048

PREGAP 00:03:00

INDEX 01 00:00:00



FILE TRACK3.WAV WAVE

TRACK 03 AUDIO

PREGAP 00:02:50

INDEX 01 00:00:00



FILE TRACK4.WAV WAVE

TRACK 04 AUDIO

PREGAP 00:00:01

INDEX 01 00:00:00



FILE TRACK5.WAV WAVE

TRACK 05 AUDIO

PREGAP 00:00:01

INDEX 01 00:00:00



FILE TRACK6.WAV WAVE

TRACK 06 AUDIO

PREGAP 00:00:00

INDEX 01 00:00:00



FILE TRACK7.WAV WAVE

TRACK 07 AUDIO

PREGAP 00:00:00

INDEX 01 00:00:00



FILE TRACK8.WAV WAVE

TRACK 08 AUDIO

PREGAP 00:00:01

INDEX 01 00:00:00



FILE TRACK9.WAV WAVE

TRACK 09 AUDIO

PREGAP 00:00:00

INDEX 01 00:00:00



FILE TRACK10.WAV WAVE

TRACK 10 AUDIO

PREGAP 00:00:00

INDEX 01 00:00:00



FILE TRACK11.WAV WAVE

TRACK 11 AUDIO

PREGAP 00:00:00

INDEX 01 00:00:00



FILE TRACK12.WAV WAVE

TRACK 12 AUDIO

PREGAP 00:00:01

INDEX 01 00:00:00



FILE TRACK13.WAV WAVE

TRACK 13 AUDIO

PREGAP 00:00:01

INDEX 01 00:00:00



FILE TRACK14.WAV WAVE

TRACK 14 AUDIO

PREGAP 00:00:01

INDEX 01 00:00:00



FILE TRACK15.WAV WAVE

TRACK 15 AUDIO

PREGAP 00:00:00

INDEX 01 00:00:00



FILE TRACK16.WAV WAVE

TRACK 16 AUDIO

PREGAP 00:00:01

INDEX 01 00:00:00



FILE TRACK17.WAV WAVE

TRACK 17 AUDIO

PREGAP 00:00:01

INDEX 01 00:00:00



FILE TRACK18.WAV WAVE

TRACK 18 AUDIO

PREGAP 00:00:00

INDEX 01 00:00:00



FILE TRACK19.WAV WAVE

TRACK 19 AUDIO

PREGAP 00:00:00

INDEX 01 00:00:00



FILE TRACK20.WAV WAVE

TRACK 20 AUDIO

PREGAP 00:00:01

INDEX 01 00:00:00



FILE TRACK21.WAV WAVE

TRACK 21 AUDIO

PREGAP 00:00:00

INDEX 01 00:00:00



FILE DRACX_22.ISO BINARY

TRACK 22 MODE1/2048

PREGAP 00:03:00

INDEX 01 00:00:00


bien entendu convertir les fichier wav en mp3

mais une fois ceci mis dans notepad comment je dois nommer l'extension du fichier ?
ensuite est ce que je dois modifier ou rajouter des lignes de commandes dans hu6280.ini ?
en bred que dois je faire du fichier creer ou dois je le placer

et aussi une autre question c'est au sujet du stick analogique car je le trouve vraiment moyen celui d'origine
est ce que yaurait pas un autre stick bcp plus confortable pour la gp2x

voila j'espere ne pas avoir poser trop de question et embeter personne chinois

4

tu le nomme du mêmem nom que la rom mais avec l'extension .toc et quand tu lancera le jeu, tu lancera le fichier toc


Oui certaines personnes n'aime pas le stick de base (bien que celui de la MK2 soit mieux que celui de la MK1 ^^) et il existe un mod matériel pour mettre un pad à la place du stick voir autre post dans ce forum

5

Perso j'ai les 3 sticks du commerce (mk1, celui ou il y a écrit gp2x et le mk2) ben je préfère le mk2, le gp2x est un peut trop haut.., le mk1 glisse et tourne..
avatarTout probleme a sa solution
Oeil de feu

6

bon bin je viens de tester ce que tu ma dit pour le fichier .toc et sa ne fonctionne pas

7

voila mon fichier castlevania.toc
[code]
syscard: syscard3.pce

Leadin
track1.wav 00:48:00
dracx_02.iso 00:00:00
track3.wav 01:46:00
track4.wav 01:03:00
track5.wav 01:36:00
track6.wav 01:23:00
track7.wav 01:04:00
track8.wav 02:58:00
track9.wav 01:43:00
track10.wav 02:40:00
track11.wav 01:41:00
track12.wav 02:30:00
track13.wav 02:27:00
track14.wav 03:39:00
track15.wav 02:25:00
track16.wav 03:15:00
track17.wav 01:29:00
track18.wav 01:42:00
track19.wav 02:00:00
track20.wav 04:01:00
track21.wav 04:13:00
dracx_22.iso 00:00:00
Leadout
[/code]
dans mon répertoire j'ai syscard3.pce (bios du supercd), les track en wav et les 2 fichier iso

8

ok je test de suite
sinon on n'est obliger de laisser les fichiers en WAV c'est pas possible de les convertir en mp3 ?

9

sa ne fonctionne tjs pas
bon je te dis ce que j'ai moi dans mon repertoire
alors j'ai bien creer le repertoire iso dans le dossier rom ce qui donne ce ci : rom\pcengine\iso
dans le repertoire iso j'ai mis les track wav et les 2 fichiers iso
dracx_02.iso et dracx_22.iso
aussi le bios supercd que j'ai renommer en syscard3.pce ( mais le jeu ce lance quand meme sans ce fichier! )
le fichier toc que j'ai nommer dracx.toc j'ai essayer avec mon toc que j'ai ecrit au dessus et j'ai tester le tiens avec un copier coller
et pareil le jeu fonctionne mais sans musique
dans le menu de l'emulateur gp2x ( HU6280 ) je lance le fichier dracx_02.iso j'ai meme tester de lancer dracx_22.iso mais pareil pas de musique
voila

10

bonjour à tous, j'ai le même probleme que kingor94, DraculaX fonctione bien mais sans les musiques ( donc beaucoup moins d'interets ) j'ai pourtant essayé les musiques au format wav et mp3 en modifiant bien sur le TOC ( je precise que la version 1.7 de l'emu supporte le mp3 et le ogg ) voila j'aimerais donc savoir si quelqu'un a reussi à faire tourner un jeu cd² avec les pistes sons merci d'avance pour les explications.

11

c'est bon pour moi j'ai enfin le son des pistes audio ( c'est la classe !! ) par contre j'ai abandonné hu6280 pour l'instant ( j'comprend rien ) je suis sur GP2XENGINE, la seule chose a lui reprocher c'est qu'il ne gere pas les MP3/OGG donc je me traine du WAV mais ça ira bien pour le moment, voila, a moi CASTLEVANIAX!!!